Kill Order 2017 1080p WEBRip x264 ESub

Kill Order 2017 1080p WEBRip x264 ESub - Frapex.Ro lyrics Kill Order 2017 1080p WEBRip x264 ESub - Frapex.Ro online music song lyrics



Torrent File Content (1 file)

Kill Order 2017 1080p WEBRip x264 ESub
Kill Order 2017 1080p WEBRip x264 ESub.mkv – 1.25 GB

Deion


[url=https://pichub.site/image/f4YHJ]
https://pichub.site/images/2018/02/13/MV5BMzI3YzgwNjEtNGUyYS00OTM2LTlmNWYtMTY4NzhjMjFlNmU2XkEyXkFqcGdeQXVyMzQwMTY2Nzk._V1_QL50_SY1000_CR007141000_AL_.md.jpg
[/url]

General
Format : Matroska
Format version : Version 4 / Version 2
File size : 1.25 GiB
Duration : 1 h 17 min
Overall bit rate : 2 305 kb/s

Video
ID : 1
Format : AVC
Format/Info : Advanced Video Codec
Format profile : [email protected]
Format settings : CABAC / 4 Ref Frames
Format settings, CABAC : Yes
Format settings, ReFrames : 4 frames
Codec ID : V_MPEG4/ISO/AVC
Duration : 1 h 17 min
Bit rate : 2 100 kb/s
Width : 1 920 pixels
Height : 820 pixels
Display aspect ratio : 2.35:1
Frame rate mode : Constant
Frame rate : 23.976 (24000/1001) FPS
Color space : YUV
Chroma subsampling : 4:2:0
Bit depth : 8 bits
Scan type : Progressive
Bits/(Pixel*Frame) : 0.056
Stream size : 1.14 GiB (92%)
Writing library : x264 core 148 r2708 86b7198
Default : Yes
Forced : No

Audio
ID : 2
Format : AC-3
Format/Info : Audio Coding 3
Codec ID : A_AC3
Duration : 1 h 17 min
Bit rate mode : Constant
Bit rate : 192 kb/s
Channel(s) : 6 channels
Channel positions : Front: L C R, Side: L R, LFE
Sampling rate : 48.0 kHz
Frame rate : 31.250 FPS (1536 SPF)
Bit depth : 16 bits
Compression mode : Lossy
Stream size : 106 MiB (8%)
Language : English
Service kind : Complete Main
Default : Yes
Forced : No

Text
ID : 3
Format : UTF-8
Codec ID : S_TEXT/UTF8
Codec ID/Info : UTF-8 Plain Text
Duration : 1 h 10 min
Bit rate : 34 b/s
Count of elements : 696
Stream size : 17.9 KiB (0%)
Language : English
Default : Yes
Forced : No





[url=https://pichub.site/image/f4IS5]
https://pichub.site/images/2018/02/13/00_07_41.md.jpg
[/url]
[url=https://pichub.site/image/f4RXj]
https://pichub.site/images/2018/02/13/00_10_15.md.jpg
[/url]
[url=https://pichub.site/image/f4Ogh]
https://pichub.site/images/2018/02/13/00_45_09.md.jpg
[/url]
[url=https://pichub.site/image/f4Etk]
https://pichub.site/images/2018/02/13/00_46_10.md.jpg
[/url]
[url=https://pichub.site/image/f4DMr]
https://pichub.site/images/2018/02/13/00_49_46.md.jpg
[/url]
[url=https://pichub.site/image/f4dpQ]
https://pichub.site/images/2018/02/13/00_53_52.md.jpg
[/url]
[url=https://pichub.site/image/f47ev]
https://pichub.site/images/2018/02/13/00_54_54.md.jpg
[/url]
[url=https://pichub.site/image/f4ckd]
https://pichub.site/images/2018/02/13/00_55_25.md.jpg
[/url]
[url=https://pichub.site/image/f4kv9]
https://pichub.site/images/2018/02/13/01_04_39.md.jpg
[/url]