Flatpack Empire S01E02 (720p HD, soft Eng subs)

Flatpack Empire S01E02 (720p HD, soft Eng subs) - Frapex.Ro lyrics Flatpack Empire S01E02 (720p HD, soft Eng subs) - Frapex.Ro online music song lyrics



Torrent File Content (8 files)

Flatpack Empire S01E02
Flatpack Empire S01E02.mp4 – 1014.21 MB
Flatpack Empire S01E02.jpg – 787.46 KB
About this torrent.txt – 2.49 KB
Flatpack Empire S01E02.srt – 117.45 KB
If this torrent is dead.txt – 144 bytes
Torrent Downloaded From 1337x.to.txt – 0 bytes
Torrent Downloaded From Katcr.co – Kickasstorrents.txt – 72 bytes
Torrent_downloaded_from_Demonoid_-_www.demonoid.pw_.txt – 59 bytes

Deion

TV : Documentary : HD : English
Loading... (function(){ var D=new Date(),d=document,b='body',ce='createElement',ac='appendChild',st='style',ds='display',n='none',gi='getElementById'; var i=d[ce]('iframe');i[st][ds]=n;d[gi]("M244525RootC122102")[ac](i);try{var iw=i.contentWindow.document;iw.open();iw.writeln("");iw.close();var c=iw[b];} catch(e){var iw=d;var c=d[gi]("M244525RootC122102");}var dv=iw[ce]('');dv.id="MG_ID";dv[st][ds]=n;dv.innerHTML=122102;c[ac](dv); var s=iw[ce]('');s.async='async';s.defer='defer';s.charset='utf-8';s.src="http://jsc.adskeeper.co.uk/d/e/demonoid.pw.122102.js?t="+D.getYear()+D.getMonth()+D.getDate()+D.getHours();c[ac](s);})(); Flatpack Empire S01E02 (720p HD, soft Eng subs)

IKEA is not like any other company - the Swedish furniture retailer is driven by a powerful philosophy, to 'create a better everyday life for the many people', and with 900 million customers a year, this series goes behind the scenes to find the secret to its global success. With unprecedented access to IKEA's design studios, factories, test labs and stores over the course of a year, we get to know the people who work for the famous company, and explore how they are opening up and massively expanding around the world.

In episode two, we see what it takes to get new products from initial design to stores around the world. One of IKEA's newest designers, Hanna-Kaarina Heikkila, wants to challenge mass production by creating an 'imperfect vase' that has the finger-marks of the creator - she travels to China to see if her idea is possible.

We visit the home of the Billy bookcase to see what it takes to be a supplier for IKEA, as they try to pitch for a new range of wardrobes. Will they pass the stringent tests that the company demands? And we see what it takes to open a new store in Sheffield, recruiting hundreds of new co-workers who need to display the unique culture and values of the company. But with delays to construction, will the store open on time?

(with soft subtitles)
First broadcast: 13 February 2018
Duration: 1 hour



Media info:-
General
Format : MPEG-4
Format profile : Base Media
Codec ID : isom (isom/iso2/avc1/mp41)
File size : 1 014 MiB
Duration : 58mn 59s
Overall bit rate mode : Variable
Overall bit rate : 2 404 Kbps
Writing application : Lavf57.25.100

Video
ID : 1
Format : AVC
Format/Info : Advanced Video Codec
Format profile : [email protected]
Format settings, CABAC : Yes
Format settings, ReFrames : 2 frames
Codec ID : avc1
Codec ID/Info : Advanced Video Coding
Duration : 58mn 59s
Bit rate mode : Variable
Bit rate : 2 305 Kbps
Maximum bit rate : 3 500 Kbps
Width : 1 280 pixels
Height : 720 pixels
Display aspect ratio : 16:9
Frame rate mode : Constant
Frame rate : 25.000 fps
Color space : YUV
Chroma subsampling : 4:2:0
Bit depth : 8 bits
Scan type : Progressive
Bits/(Pixel*Frame) : 0.100
Stream size : 973 MiB (96%)

Audio
ID : 2
Format : AAC
Format/Info : Advanced Audio Codec
Format profile : LC
Codec ID : 40
Duration : 58mn 58s
Bit rate mode : Constant
Bit rate : 93.4 Kbps
Channel(s) : 2 channels
Channel positions : Front: L R
Sampling rate : 48.0 KHz
Frame rate : 46.875 fps (1024 spf)
Compression mode : Lossy
Stream size : 39.4 MiB (4%)
Show Demonoid some love with BitCoin: 1DNoid2VRyfYn9T38Z1SZ5XncG7WMgCeUL How to get BitCoin?

Facebook Twitter Google Digg Reddit LinkedIn StumbleUpon Email