Above Ground Level Dubfire 2017 1080p WEBRip x264 ESub

Above Ground Level Dubfire 2017 1080p WEBRip x264 ESub - Frapex.Ro lyrics Above Ground Level Dubfire 2017 1080p WEBRip x264 ESub - Frapex.Ro online music song lyrics



Torrent File Content (1 file)

Above Ground Level Dubfire 2017 1080p WEBRip x264 ESub
Above Ground Level Dubfire 2017 1080p WEBRip x264 ESub.mkv – 1.12 GB

Deion


[url=https://pichub.site/image/f4wHu]
https://pichub.site/images/2018/02/13/MV5BOWJjNGQ0MGItMmEyMi00ZDU2LWIxNDYtZGI1MTIyNjUxNDE2XkEyXkFqcGdeQXVyMjYxMDQ3MjI._V1_QL50_SY999_CR00707999_AL_.md.jpg
[/url]

General
Format : Matroska
Format version : Version 4 / Version 2
File size : 1.12 GiB
Duration : 1 h 16 min
Overall bit rate : 2 091 kb/s

Video
ID : 1
Format : AVC
Format/Info : Advanced Video Codec
Format profile : [email protected]
Format settings : CABAC / 4 Ref Frames
Format settings, CABAC : Yes
Format settings, ReFrames : 4 frames
Codec ID : V_MPEG4/ISO/AVC
Duration : 1 h 16 min
Bit rate : 2 000 kb/s
Width : 1 920 pixels
Height : 798 pixels
Display aspect ratio : 2.40:1
Frame rate mode : Constant
Frame rate : 25.000 FPS
Color space : YUV
Chroma subsampling : 4:2:0
Bit depth : 8 bits
Scan type : Progressive
Bits/(Pixel*Frame) : 0.052
Stream size : 1.05 GiB (94%)
Writing library : x264 core 148 r2708 86b7198
Default : Yes
Forced : No

Audio
ID : 4
Format : AAC
Format/Info : Advanced Audio Codec
Format profile : LC
Codec ID : A_AAC-2
Duration : 1 h 16 min
Bit rate : 128 kb/s
Channel(s) : 2 channels
Channel positions : Front: L R
Sampling rate : 44.1 kHz
Frame rate : 43.066 FPS (1024 SPF)
Compression mode : Lossy
Stream size : 70.0 MiB (6%)
Language : English
Default : Yes
Forced : No

Text #1
ID : 2
Format : UTF-8
Codec ID : S_TEXT/UTF8
Codec ID/Info : UTF-8 Plain Text
Duration : 1 h 16 min
Bit rate : 73 b/s
Count of elements : 1130
Stream size : 41.0 KiB (0%)
Language : English
Default : No
Forced : No

Text #2
ID : 3
Format : UTF-8
Codec ID : S_TEXT/UTF8
Codec ID/Info : UTF-8 Plain Text
Duration : 1 h 16 min
Bit rate : 75 b/s
Count of elements : 1186
Stream size : 42.3 KiB (0%)
Title : SDH
Language : English
Default : No
Forced : No





[url=https://pichub.site/image/f4CDR]
https://pichub.site/images/2018/02/13/00_09_56.md.jpg
[/url]
[url=https://pichub.site/image/f4inB]
https://pichub.site/images/2018/02/13/00_10_42.md.jpg
[/url]
[url=https://pichub.site/image/f4hgs]
https://pichub.site/images/2018/02/13/00_12_14.md.jpg
[/url]
[url=https://pichub.site/image/f48t6]
https://pichub.site/images/2018/02/13/00_14_31.md.jpg
[/url]
[url=https://pichub.site/image/f4zYY]
https://pichub.site/images/2018/02/13/00_16_49.md.jpg
[/url]
[url=https://pichub.site/image/f4Bj4]
https://pichub.site/images/2018/02/13/00_37_28.md.jpg
[/url]
[url=https://pichub.site/image/f4A2t]
https://pichub.site/images/2018/02/13/00_53_31.md.jpg
[/url]
[url=https://pichub.site/image/f4gkp]
https://pichub.site/images/2018/02/13/00_59_38.md.jpg
[/url]